Discussão:Encontro de Acadêmicos pelo Conhecimento Livre

Fonte: Wikiversidade
Saltar para a navegação Saltar para a pesquisa

Discussões anteriores: Arquivo 2013-05-06;

Terefas[editar código-fonte]

  • Divulgação
  • Definir a composição das mesas
  • Distribuir passagens e custeios
  • Negociar com serviço de captação audiovisual sobre o dia 07
    • Responder os detalhes à IPTV da USP (email Abdo e Ewout)
  • Contratar serviço de alimentação para dia 07 (amigável a vegetarianos)

Divulgação[editar código-fonte]

A principal necessidade é divulgação local para o dia 07. Alguns representantes de outros estados já comparecerão como membros do grupo, que já preencherá o dia 08, e poderão organizar seus encontros locais no futuro.

  • Principais: USP (todos os campi, FMUSP, FD, IEA), Unicamp, UNESP, UNIFESP, UFABC, PUC-SP, FGV-SP, Mackenzie, Anhembi-Morumbi, ESPM etc.
  • Secundárias: UFRJ, COPPE, UNIRIO, PUC-RIO, UFPR, UFMG, UFRN etc.

Comentários[editar código-fonte]

Como divulgar para todos os institutos de uma universidade? --Solstag (discussão) 18h29min de 6 de maio de 2013 (UTC)

Dia de hack na ciência[editar código-fonte]

Descobri agora esse Science Hack Day. Mandei um e-mail para eles, pois parece que houve brasileiro que participou de um evento em San Francisco. E vamos tentar estimular os professores nossos a chamarem seus estudantes! :D --Ezalvarenga (discussão) 00h57min de 8 de maio de 2013 (UTC)

Edição dos vídeos[editar código-fonte]

Um pequeno passo a passo para editar os vídeos.

  1. Determinar o instante inicial, II:II:II, e final, FF:FF:FF, desejado de video_nao_editado.xxx.
  2. Utilizar o comando abaixo para obter apenas o trecho desejado:
$ ffmpeg -ss II:II:II -i video_nao_editado.xxx -to EE:EE:EE trecho_desejado.xxx

No caso de desejar adicionar informações:

  1. Obter informações sobre o vídeo
$ ffmpeg -i 3alebXzcbJkIpjKEOXfiIw 2>&1 | grep -i stream
    Stream #0:0(eng): Video: h264 (Baseline) (avc1 / 0x31637661), yuv420p, 640x524 [SAR 1:1 DAR 160:131], 350 kb/s, 29.97 tbr, 1k tbn, 59.94 tbc
    Stream #0:1(eng): Audio: mp3 (.mp3 / 0x33706D2E), 22050 Hz, mono, s16p, 47 kb/s